+ everythingbeauty.info »  :::: Dubbed Zone (Dubbed English in Hindi) » English Movies Dubbed in Hindi
|- Ant-Man and the Wasp (2018) 720p BluRay x264 Dual Audio [Hindi DD5.1 (RM) DTH - English DD2.0] - Esu


100% Bill Offer

Ant-Man and the Wasp (2018) 720p BluRay x264 Dual Audio [Hindi DD5.1 (RM) DTH - English DD2.0] - Esu

0 Members and 1 Guest are viewing this topic.

October 05, 2018, 11:40:26 PM
  • Global Moderator
  • Legend Member
  • *****
  • Topic Author
  • Thank You: 10076
  • Reputation: 2079
  • Activity:
    100%
  • Country: in
  • Posts: 5234
  • Topics: 4319
  • Join Date: Jan 2014
  • ıllıllı ѕмoĸιng ιѕ good ғor нealтн ıllıllı :)






Ant-Man and the Wasp (2018) 720p BluRay x264 Dual Audio [Hindi DD5.1 (RM) DTH - English DD2.0] - Esub ~ Ranvijay


Buy RDP Online




Quote
General
Format                                   : Matroska
Format version                           : Version 4 / Version 2
File size                                : 1.39 GiB
Duration                                 : 1 h 58 min
Overall bit rate                         : 1 685 kb/s
Movie name                               : Ant-Man and the Wasp (2018) 720p BluRay x264 Dual Audio [Hindi DD5.1 (RM) DTH - English DD2.0] - Esub ~ Ranvijay

Video
ID                                       : 1
Format                                   : AVC
Format/Info                              : Advanced Video Codec
Duration                                 : 1 h 58 min
Bit rate                                 : 1 199 kb/s
Width                                    : 1 280 pixels
Height                                   : 536 pixels
Display aspect ratio                     : 2.40:1
Frame rate mode                          : Constant
Frame rate                               : 23.976 (24000/1001) FPS
Color space                              : YUV
Chroma subsampling                       : 4:2:0
Bit depth                                : 8 bits
Scan type                                : Progressive
Bits/(Pixel*Frame)                       : 0.073
Stream size                              : 1 012 MiB (71%)
Title                                    : ~Ranvijay~

Audio #1
ID                                       : 2
Format                                   : AC-3
Format/Info                              : Audio Coding 3
Codec ID                                 : A_AC3
Duration                                 : 1 h 58 min
Bit rate mode                            : Constant
Bit rate                                 : 384 kb/s
Channel(s)                               : 6 channels
Channel positions                        : Front: L C R, Side: L R, LFE
Sampling rate                            : 44.1 kHz
Frame rate                               : 28.711 FPS (1536 SPF)
Bit depth                                : 16 bits
Compression mode                         : Lossy
Stream size                              : 324 MiB (23%)
Title                                    : ~Ranvijay~
Language                                 : Hindi
Service kind                             : Complete Main
Default                                  : Yes
Forced                                   : Yes

Audio #2
ID                                       : 3
Format                                   : AAC
Format/Info                              : Advanced Audio Codec
Format profile                           : HE-AAC / LC
Format settings                          : Explicit
Codec ID                                 : A_AAC-2
Duration                                 : 1 h 58 min
Bit rate                                 : 100.0 kb/s
Channel(s)                               : 2 channels
Channel positions                        : Front: L R
Sampling rate                            : 48.0 kHz / 24.0 kHz
Frame rate                               : 23.438 FPS (1024 SPF)
Compression mode                         : Lossy
Delay relative to video                  : 31 ms
Stream size                              : 84.5 MiB (6%)
Title                                    : ~Ranvijay~
Language                                 : English
Default                                  : No
Forced                                   : No

Text
ID                                       : 4
Format                                   : UTF-8
Codec ID                                 : S_TEXT/UTF8
Codec ID/Info                            : UTF-8 Plain Text
Duration                                 : 1 h 50 min
Bit rate                                 : 65 b/s
Count of elements                        : 1930
Stream size                              : 53.5 KiB (0%)
Title                                    : ~Ranvijay~
Language                                 : Finnish
Default                                  : Yes
Forced                                   : No

Menu
00:00:00.000                             : en:00:00:00.000
00:04:03.034                             : en:00:04:03.034
00:10:16.407                             : en:00:10:16.407
00:13:39.861                             : en:00:13:39.861
00:21:25.451                             : en:00:21:25.451
00:29:07.829                             : en:00:29:07.829
00:36:09.084                             : en:00:36:09.084
00:40:56.579                             : en:00:40:56.579
00:50:17.431                             : en:00:50:17.431
00:58:59.077                             : en:00:58:59.077
01:04:56.434                             : en:01:04:56.434
01:12:54.287                             : en:01:12:54.287
01:18:32.124                             : en:01:18:32.124
01:24:44.913                             : en:01:24:44.913
01:29:47.340                             : en:01:29:47.340
01:36:16.270                             : en:01:36:16.270
01:43:35.334                             : en:01:43:35.334
01:46:59.830                             : en:01:46:59.830



:download:

Quote


File Leeched & Uploaded From




Don't walk as you are king, walk as you don't care who the king is....!!
Never argue with an idiot. They drag you down to their level and then beat you with experience?

Share this topic on FacebookShare this topic on GoogleShare this topic on MySpaceShare this topic on TwitterShare this topic on Yahoo




Don't walk as you are king, walk as you don't care who the king is....!!

Thanks given by:


October 06, 2018, 01:22:30 AM
Reply #1
  • Special Member
  • ****
  • Thank You: 1
  • Reputation: 1
  • Activity:
    4.4%
  • Posts: 847
  • Topics: 2
  • Join Date: Apr 2012
  • ShareSpark Member

October 17, 2018, 02:16:11 AM
Reply #2
  • Hot Member
  • ***
  • Thank You: 0
  • Reputation: 3
  • Activity:
    2.6%
  • Posts: 582
  • Topics: 0
  • Join Date: Sep 2012
  • ShareSpark Member

Tags:
 

Related Topics





Back to top